<svg xmlns="http://www.w3.org/2000/svg">
<defs>
<font
   id="FontID1"
   horiz-adv-x="680"
   font-variant="normal"
   style="fill-rule:nonzero"
   font-style="normal"
   font-weight="400">
	<font-face
   font-family="Lato"
   id="font-face2">
		<font-face-src>
			<font-face-name
   name="Lato Regular" />
		</font-face-src>
	</font-face>
   <missing-glyph
   id="missing-glyph6"><path
     d="M0 0z"
     id="path4" /></missing-glyph>
   <glyph
   unicode="w"
   horiz-adv-x="766"
   d="M6.99898 506.999l69.9898 0c7.34547,0 13.3512,-1.82482 18.0172,-5.49755 4.66599,-3.67273 7.83055,-7.99224 9.49367,-13.0047l96.9925 -326.319c2.67948,-12.0115 5.17417,-23.6764 7.50716,-34.8332 2.33299,-11.1799 4.3426,-22.3367 6.00573,-33.84 2.65638,11.5033 5.65924,22.6601 8.98549,33.84 3.34935,11.1568 6.83729,22.8218 10.51,34.8332l106.994 328.329c1.66312,4.98937 4.66599,9.17029 8.8469,12.4965 4.15781,3.32625 9.33198,4.98937 15.6611,4.98937l38.506 0c6.6525,0 12.1501,-1.66312 16.4927,-4.98937 4.3426,-3.32625 7.32237,-7.50716 9.00859,-12.4965l104.5 -328.329c3.64964,-11.6881 6.99898,-23.1683 9.81706,-34.5098 2.84117,-11.3416 5.49755,-22.4984 8.17703,-33.6783 1.66312,11.1799 3.83443,22.6832 6.49081,34.6715 2.67948,12.0115 5.49755,23.1683 8.50042,33.5166l99.0021 326.319c1.66312,5.33586 4.82768,9.67846 9.49367,13.1664 4.66599,3.51104 10.1866,5.33586 16.5158,5.33586l66.987 0 -164.003 -506.999 -70.498 0c-8.66211,0 -14.6678,5.65924 -17.9941,17.0008l-112.007 343.828c-2.65638,7.66885 -4.82768,15.4994 -6.49081,23.3299 -1.66312,7.83055 -3.32625,15.4994 -5.01247,23.1683 -1.66312,-7.66885 -3.32625,-15.4994 -4.98937,-23.4916 -1.66312,-7.99224 -3.83443,-15.8459 -6.49081,-23.4916l-113.508 -343.343c-3.67273,-11.3416 -10.51,-17.0008 -20.5119,-17.0008l-66.987 0 -164.003 506.999z"
   id="glyph8" />
   <glyph
   unicode="D"
   horiz-adv-x="753"
   d="M708.006 358.334c0,-53.8437 -8.50042,-102.675 -25.5012,-146.678 -17.0008,-43.9804 -41.0006,-81.6548 -71.9994,-113.162 -30.9988,-31.3222 -68.165,-55.4837 -111.499,-72.6693 -43.3336,-17.1625 -91.3333,-25.8246 -143.999,-25.8246l-268.017 0 0 716.992 268.017 0c52.6656,0 100.665,-8.66211 143.999,-25.8246 43.3336,-17.1625 80.4999,-41.5088 111.499,-72.9927 30.9988,-31.507 54.9986,-69.3431 71.9994,-113.347 17.0008,-44.0035 25.5012,-92.8347 25.5012,-146.494zm-99.5103 0c0,43.8418 -6.00573,83.1562 -17.9941,117.828 -12.0115,34.6715 -29.0123,64.0072 -51.0025,87.8453 -21.9902,23.9998 -48.6695,42.3173 -79.9917,54.9986 -31.3453,12.6582 -66.1785,18.9873 -104.5,18.9873l-170.516 0 0 -558.995 170.516 0c38.3212,0 73.1544,6.32911 104.5,19.0104 31.3222,12.6582 58.0015,30.814 79.9917,54.6521 21.9902,23.8381 38.991,53.0121 51.0025,87.6836 11.9884,34.6484 17.9941,73.986 17.9941,117.989z"
   id="glyph10" />
   <glyph
   unicode="f"
   horiz-adv-x="336"
   d="M92.9964 -0.508177l0 430.842 -55.9919 6.6756c-6.99898,1.66312 -12.6813,4.3195 -17.1625,7.83055 -4.5043,3.48794 -6.83729,8.66211 -6.83729,15.3377l0 36.8197 79.9917 0 0 48.8312c0,29.0123 4.18091,54.6752 12.3348,77.1736 8.17703,22.4984 19.842,41.324 34.9949,56.8234 15.176,15.4994 33.3318,27.1644 54.6752,35.1797 21.3434,7.99224 45.3433,11.9884 71.9994,11.9884 22.6601,0 43.657,-3.48794 62.9909,-10.4869l-1.98651 -44.5117c-0.346484,-6.6525 -3.16456,-10.6717 -8.50042,-11.9884 -5.33586,-1.33974 -12.843,-2.00961 -22.4984,-2.00961l-15.4994 0c-15.3377,0 -29.174,-1.98651 -41.6705,-6.00573 -12.4965,-3.99612 -23.3299,-10.3252 -32.3385,-19.3338 -9.00859,-8.98549 -15.8228,-20.6505 -20.6736,-35.3183 -4.82768,-14.5061 -7.32237,-32.5002 -7.32237,-54.1671l0 -46.1748 146.494 0 0 -65.0005 -143.491 0 0 -432.505 -89.5085 0z"
   id="glyph12" />
   <glyph
   unicode="A"
   horiz-adv-x="680"
   d="M676.499 0l-75.0023 0c-8.66211,0 -15.6611,2.1713 -20.997,6.49081 -5.33586,4.3426 -9.33198,9.84016 -11.9884,16.5158l-67.0101 172.988 -321.491 0 -67.0101 -172.988c-2.33299,-6.00573 -6.32911,-11.3416 -12.0115,-16.0076 -5.65924,-4.66599 -12.6582,-6.99898 -20.997,-6.99898l-75.0023 0 286.519 716.992 98.4939 0 286.496 -716.992zm-469.509 265.499l267.509 0 -112.492 291.832c-7.34547,17.9941 -14.5061,40.4925 -21.5051,67.4951 -3.67273,-13.6515 -7.16068,-26.1711 -10.6717,-37.6513 -3.48794,-11.5033 -6.99898,-21.6668 -10.3252,-30.352l-112.515 -291.324z"
   id="glyph14" />
   <glyph
   unicode="ü"
   horiz-adv-x="555"
   d="M150.005 506.999l0 -323.339c0,-38.3212 8.8238,-68.165 26.4945,-89.162 17.6707,-20.997 44.3269,-31.507 79.9917,-31.507 26.0094,0 50.5174,6.16742 73.5009,18.5023 23.0066,12.3348 44.1652,29.4974 63.499,51.5107l0 373.995 89.0003 0 0 -506.999 -52.989 0c-12.6582,0 -20.6736,6.16742 -23.9998,18.5023l-6.99898 54.4904c-22.0133,-24.3232 -46.6599,-43.8187 -74.0091,-58.6482 -27.3261,-14.8526 -58.6713,-22.3367 -93.9897,-22.3367 -27.6725,0 -51.9957,4.66599 -73.1775,13.8363 -21.1586,9.14719 -38.991,21.9902 -53.3355,38.6446 -14.3214,16.6774 -24.9931,37.0045 -32.1537,60.681 -7.16068,23.6533 -10.8334,49.8244 -10.8334,78.4903l0 323.339 89.0003 0zm92.4882 138.825c0,-7.83055 -1.50143,-14.9912 -4.5043,-21.6668 -2.97977,-6.6525 -7.16068,-12.4965 -12.4965,-17.6476 -5.33586,-5.01247 -11.3185,-9.00859 -18.1558,-12.0115 -6.83729,-3.00286 -14.1597,-4.5043 -21.8285,-4.5043 -7.34547,0 -14.3445,1.50143 -20.997,4.5043 -6.6756,3.00286 -12.5196,6.99898 -17.6707,12.0115 -5.17417,5.15107 -9.33198,10.9951 -12.3348,17.6476 -3.00286,6.6756 -4.5043,13.8363 -4.5043,21.6668 0,7.66885 1.50143,15.0143 4.5043,22.0133 3.00286,6.99898 7.16068,13.1664 12.3348,18.3406 5.15107,5.15107 10.9951,9.33198 17.6707,12.3117 6.6525,3.00286 13.6515,4.5043 20.997,4.5043 7.66885,0 14.9912,-1.50143 21.8285,-4.5043 6.83729,-2.97977 12.8199,-7.16068 18.1558,-12.3117 5.33586,-5.17417 9.51677,-11.3416 12.4965,-18.3406 3.00286,-6.99898 4.5043,-14.3445 4.5043,-22.0133zm179.502 0c0,-7.83055 -1.50143,-14.9912 -4.5043,-21.6668 -2.97977,-6.6525 -6.99898,-12.4965 -12.1501,-17.6476 -5.17417,-5.01247 -11.1799,-9.00859 -18.0172,-12.0115 -6.81419,-3.00286 -14.1597,-4.5043 -21.8285,-4.5043 -7.66885,0 -14.8295,1.50143 -21.6668,4.5043 -6.83729,3.00286 -12.8199,6.99898 -17.8324,12.0115 -4.98937,5.15107 -8.98549,10.9951 -11.9884,17.6476 -3.00286,6.6756 -4.5043,13.8363 -4.5043,21.6668 0,7.66885 1.50143,15.0143 4.5043,22.0133 3.00286,6.99898 6.99898,13.1664 11.9884,18.3406 5.01247,5.15107 10.9951,9.33198 17.8324,12.3117 6.83729,3.00286 13.998,4.5043 21.6668,4.5043 7.66885,0 15.0143,-1.50143 21.8285,-4.5043 6.83729,-2.97977 12.843,-7.16068 18.0172,-12.3117 5.15107,-5.17417 9.17029,-11.3416 12.1501,-18.3406 3.00286,-6.99898 4.5043,-14.3445 4.5043,-22.0133z"
   id="glyph16" />
   <glyph
   unicode="c"
   horiz-adv-x="466"
   d="M418.507 417.005c-2.67948,-3.67273 -5.33586,-6.51391 -8.01534,-8.50042 -2.65638,-2.00961 -6.49081,-3.00286 -11.4802,-3.00286 -5.01247,0 -10.3483,1.98651 -16.1693,6.16742 -5.84404,4.15781 -13.3512,8.8238 -22.3367,13.8363 -9.00859,4.98937 -19.842,9.49367 -32.6619,13.6515 -12.843,4.18091 -28.6658,6.35221 -47.3529,6.35221 -24.6466,0 -46.4982,-4.5043 -65.4855,-13.3512 -19.0104,-8.8238 -34.8332,-21.482 -47.6762,-38.1595 -12.8199,-16.6543 -22.4984,-36.8428 -28.9892,-60.4962 -6.51391,-23.6764 -9.84016,-50.1709 -9.84016,-79.5066 0,-30.6523 3.51104,-57.8398 10.51,-81.6548 6.99898,-23.8381 16.816,-43.8418 29.4974,-60.0111 12.6582,-16.1693 28.1576,-28.5041 46.3365,-37.0045 18.1558,-8.50042 38.4829,-12.8199 61.166,-12.8199 21.6668,0 39.4992,2.65638 53.4972,7.83055 13.998,5.17417 25.6629,10.8334 34.9949,17.1625 9.33198,6.32911 17.0008,12.1731 23.0066,17.3242 5.98263,5.17417 11.9884,7.66885 17.9941,7.66885 7.66885,0 13.3281,-2.81807 17.0008,-8.50042l24.9931 -32.5002c-21.9902,-27.1644 -49.5011,-46.9833 -82.4864,-59.6646 -33.0084,-12.4965 -67.8416,-18.8256 -104.5,-18.8256 -31.6687,0 -61.0043,5.82094 -88.1687,17.509 -27.1644,11.665 -50.8408,28.6658 -70.8445,50.8177 -20.0037,22.175 -35.6648,49.5011 -47.1681,81.8396 -11.5033,32.3385 -17.3242,69.1583 -17.3242,110.667 0,37.6744 5.33586,72.5076 15.8228,104.5 10.51,31.9921 25.8477,59.6646 46.0131,82.8329 20.1654,23.1683 44.9968,41.324 74.6558,54.3287 29.6591,13.0047 63.6607,19.4955 102.005,19.4955 35.3414,0 66.6636,-5.82094 93.9897,-17.3242 27.3492,-11.5033 51.5107,-27.6725 72.5076,-48.6695l-23.4916 -31.9921z"
   id="glyph18" />
   <glyph
   unicode="t"
   horiz-adv-x="373"
   d="M226.508 -7.99224c-40.0074,0 -70.6828,11.1568 -92.1648,33.4935 -21.5051,22.3367 -32.3385,54.4904 -32.3385,96.6691l0 310.173 -61.0043 0c-5.33586,0 -9.84016,1.66312 -13.4898,4.82768 -3.67273,3.16456 -5.52065,7.99224 -5.52065,14.6678l0 35.6648 83.0176 10.4869 20.4888 156.519c0.66987,4.98937 2.84117,9.14719 6.51391,12.3348 3.64964,3.16456 8.31562,4.66599 13.998,4.66599l44.9968 0 0 -174.513 144.992 0 0 -64.654 -144.992 0 0 -304.352c0,-21.3203 5.15107,-37.1662 15.4994,-47.4915 10.3252,-10.3252 23.6533,-15.4994 39.9843,-15.4994 9.35508,0 17.509,1.33974 24.3463,3.83443 6.83729,2.49469 12.6582,5.17417 17.6707,8.15393 4.98937,3.00286 9.33198,5.84404 12.8199,8.33872 3.51104,2.49469 6.51391,3.67273 9.17029,3.67273 4.66599,0 8.8469,-2.84117 12.4965,-8.66211l26.0094 -43.0103c-15.3377,-14.1597 -33.84,-25.1548 -55.5068,-33.3318 -21.6668,-7.99224 -44.0035,-11.9884 -66.987,-11.9884z"
   id="glyph20" />
   <glyph
   unicode="O"
   horiz-adv-x="797"
   d="M752.495 358.011c0,-53.682 -8.50042,-103.021 -25.5012,-148.018 -17.0008,-44.8351 -41.0006,-83.5027 -71.9994,-115.818 -30.9988,-32.3385 -68.165,-57.5164 -111.66,-75.3488 -43.4953,-17.8324 -91.6567,-26.8179 -144.322,-26.8179 -52.6887,0 -100.688,8.98549 -144.022,26.8179 -43.3336,17.8324 -80.4999,43.0103 -111.499,75.3488 -30.9988,32.3154 -54.9986,70.9831 -71.9994,115.818 -17.0008,44.9968 -25.5012,94.3361 -25.5012,148.018 0,53.6589 8.50042,102.998 25.5012,147.995 17.0008,44.8351 41.0006,83.5027 71.9994,116.165 30.9988,32.5002 68.165,57.8398 111.499,75.8339 43.3336,17.9941 91.3333,27.0027 144.022,27.0027 52.6656,0 100.827,-9.00859 144.322,-27.0027 43.4953,-17.9941 80.6616,-43.3336 111.66,-75.8339 30.9988,-32.6619 54.9986,-71.3296 71.9994,-116.165 17.0008,-44.9968 25.5012,-94.3361 25.5012,-147.995zm-99.4872 0c0,43.9804 -6.00573,83.6644 -18.0172,118.659 -11.9884,35.1566 -28.9892,64.654 -50.9794,89.0003 -22.0133,24.1615 -48.6695,42.8255 -80.0148,55.8302 -31.3222,13.0047 -66.3402,19.4955 -104.985,19.4955 -38.3443,0 -73.1775,-6.49081 -104.523,-19.4955 -31.3222,-13.0047 -57.9784,-31.6687 -80.1534,-55.8302 -22.175,-24.3463 -39.3375,-53.8437 -51.3259,-89.0003 -12.0115,-34.9949 -18.0172,-74.6789 -18.0172,-118.659 0,-44.0035 6.00573,-83.5027 18.0172,-118.521 11.9884,-34.8332 29.1509,-64.3306 51.3259,-88.6538 22.175,-24.1615 48.8312,-42.6638 80.1534,-55.5068 31.3453,-12.8199 66.1785,-19.3338 104.523,-19.3338 38.6446,0 73.6626,6.51391 104.985,19.3338 31.3453,12.843 58.0015,31.3453 80.0148,55.5068 21.9902,24.3232 38.991,53.8206 50.9794,88.6538 12.0115,35.018 18.0172,74.5172 18.0172,118.521z"
   id="glyph22" />
   <glyph
   unicode="-"
   horiz-adv-x="346"
   d="M50.0092 338.007l246.997 0 0 -75.9956 -246.997 0 0 75.9956z"
   id="glyph24" />
   <glyph
   unicode="n"
   horiz-adv-x="555"
   d="M72.9927 0l0 506.999 53.0121 0c12.6582,0 20.6505,-6.16742 23.9998,-18.5023l6.99898 -55.1603c21.9902,24.508 46.6599,44.1652 73.8243,59.1564 27.1644,15.0143 58.5097,22.4984 94.1744,22.4984 27.6725,0 52.1574,-4.66599 73.3392,-13.8132 21.1586,-9.17029 38.8293,-22.175 52.989,-39.0141 14.1597,-16.8391 24.8314,-37.1662 32.1768,-60.8196 7.32237,-23.6764 10.9951,-49.8475 10.9951,-78.5134l0 -322.831 -89.0003 0 0 322.831c0,38.3443 -8.66211,68.165 -26.1711,89.3468 -17.509,21.1586 -44.3269,31.8304 -80.3382,31.8304 -26.3328,0 -50.8177,-6.35221 -73.6626,-19.0104 -22.8218,-12.6582 -44.0035,-30.0055 -63.3373,-51.6724l0 -373.325 -89.0003 0z"
   id="glyph26" />
   <glyph
   unicode="k"
   horiz-adv-x="523"
   d="M165.504 736.995l0 -434.006 23.0066 0c6.6525,0 12.1501,1.01635 16.4927,2.84117 4.3195,1.84792 9.17029,5.49755 14.5061,11.1799l159.983 171.995c5.01247,5.33586 10.0018,9.65536 15.0143,13.0047 4.98937,3.32625 11.665,4.98937 20.0037,4.98937l80.9849 0 -186.501 -199.506c-4.66599,-5.65924 -9.17029,-10.6486 -13.6515,-14.9912 -4.5043,-4.3426 -9.67846,-8.17703 -15.3377,-11.5033 6.00573,-3.99612 11.5033,-8.66211 16.331,-13.8363 4.82768,-5.15107 9.33198,-10.9951 13.6746,-17.6707l197.981 -249.492 -79.9917 0c-7.32237,0 -13.4898,1.50143 -18.664,4.3426 -5.17417,2.81807 -10.1635,7.16068 -14.8295,13.1664l-166.497 207.498c-5.01247,6.99898 -10.0018,11.665 -15.0143,13.8363 -4.98937,2.1482 -12.4965,3.16456 -22.4984,3.16456l-24.9931 0 0 -242.008 -89.5085 0 0 736.995 89.5085 0z"
   id="glyph28" />
   <glyph
   unicode="I"
   horiz-adv-x="307"
   d="M202 0l-96.9925 0 0 716.992 96.9925 0 0 -716.992z"
   id="glyph30" />
   <glyph
   unicode="y"
   horiz-adv-x="512"
   d="M221.496 -150.005c-3.00286,-6.6525 -6.6525,-11.9884 -11.1568,-15.9845 -4.5043,-4.01922 -11.5033,-6.00573 -20.8353,-6.00573l-65.9937 0 92.4882 198.004 -208.999 480.481 77.0119 0c7.64575,0 13.6515,-1.98651 17.9941,-5.82094 4.3195,-3.83443 7.48406,-8.17703 9.49367,-12.843l135.498 -323.154c3.00286,-7.34547 5.65924,-14.8295 7.83055,-22.175 2.1713,-7.50716 3.99612,-15.1529 5.68234,-22.8218 2.33299,7.66885 4.66599,15.3146 6.99898,22.8218 2.33299,7.34547 4.98937,14.9912 7.99224,22.6601l131.502 322.669c1.98651,5.33586 5.49755,9.84016 10.3252,13.3512 4.82768,3.48794 10.0018,5.31276 15.6611,5.31276l71.0062 0 -282.5 -656.495z"
   id="glyph32" />
   <glyph
   unicode="h"
   horiz-adv-x="555"
   d="M72.9927 0l0 736.995 89.0003 0 0 -298.161c21.6668,23.1683 45.6666,41.5088 71.9994,55.322 26.3328,13.8363 56.6848,20.8353 91.0099,20.8353 27.6725,0 52.1574,-4.66599 73.3392,-13.8132 21.1586,-9.17029 38.8293,-22.175 52.989,-39.0141 14.1597,-16.8391 24.8314,-37.1662 32.1768,-60.8196 7.32237,-23.6764 10.9951,-49.8475 10.9951,-78.5134l0 -322.831 -89.0003 0 0 322.831c0,38.3443 -8.66211,68.165 -26.1711,89.3468 -17.509,21.1586 -44.3269,31.8304 -80.3382,31.8304 -26.3328,0 -50.8177,-6.35221 -73.6626,-19.0104 -22.8218,-12.6582 -44.0035,-30.0055 -63.3373,-51.6724l0 -373.325 -89.0003 0z"
   id="glyph34" />
   <glyph
   unicode="T"
   horiz-adv-x="589"
   d="M575.002 718.008l0 -82.0013 -231.498 0 0 -635.498 -97.0156 0 0 635.498 -232.491 0 0 82.0013 561.004 0z"
   id="glyph36" />
   <glyph
   unicode="v"
   horiz-adv-x="512"
   d="M9.00859 506.999l72.9927 0c6.99898,0 12.843,-1.82482 17.509,-5.49755 4.66599,-3.67273 7.99224,-7.99224 9.97875,-13.0047l128.499 -326.319c4.68909,-12.0115 8.33872,-23.9998 11.0182,-36.0113 2.65638,-11.9884 5.15107,-23.8381 7.48406,-35.6648 2.67948,11.8267 5.52065,23.6764 8.50042,35.6648 3.00286,12.0115 6.83729,23.9998 11.5033,36.0113l130.001 326.319c2.00961,5.33586 5.33586,9.67846 9.84016,13.1664 4.5043,3.51104 10.0018,5.33586 16.6543,5.33586l69.5048 0 -206.505 -506.999 -80.4999 0 -206.482 506.999z"
   id="glyph38" />
   <glyph
   unicode="e"
   horiz-adv-x="523"
   d="M273.492 514.991c30.352,0 58.348,-5.15107 84.0109,-15.3146 25.6629,-10.1866 47.8379,-24.8545 66.5019,-44.0035 18.664,-19.1721 33.3318,-43.0103 43.8187,-71.1679 10.51,-28.1807 15.6842,-60.3345 15.6842,-96.5074 0,-13.998 -1.50143,-23.3299 -4.5043,-27.9959 -3.00286,-4.66599 -8.66211,-6.99898 -17.0008,-6.99898l-336.991 0c0.646771,-31.9921 4.98937,-60.0111 12.9816,-83.6644 8.01534,-23.8381 19.0104,-43.4953 33.0084,-59.5029 13.998,-15.8459 30.6754,-27.6725 50.0092,-35.5031 19.3338,-7.83055 41.0006,-11.8267 65.0005,-11.8267 22.3136,0 41.6474,2.65638 57.8167,7.83055 16.1693,5.17417 30.0055,10.8334 41.6705,16.8391 11.665,5.98263 21.5051,11.4802 29.3357,16.6543 7.83055,5.33586 14.5061,7.83055 20.1654,7.83055 7.32237,0 13.0047,-2.81807 17.0008,-8.50042l24.9931 -32.6619c-10.9951,-13.1664 -24.1615,-24.6697 -39.4992,-34.4867 -15.3377,-9.84016 -31.6687,-17.8555 -49.1546,-24.1846 -17.509,-6.16742 -35.6648,-10.9951 -54.3287,-14.1597 -18.6871,-3.16456 -37.1662,-4.66599 -55.5068,-4.66599 -34.9949,0 -67.1718,6.00573 -96.6691,17.8324 -29.4974,11.8267 -54.9986,29.174 -76.5037,51.9957 -21.5051,22.8449 -38.3212,51.1642 -50.3326,84.8425 -11.9884,33.6552 -17.9941,72.3228 -17.9941,116.165 0,35.3414 5.49755,68.3267 16.331,99.0021 10.8334,30.6523 26.3328,57.3316 46.6599,79.83 20.3271,22.4984 45.1816,40.1691 74.4941,52.989 29.3357,12.843 62.3441,19.3338 99.0021,19.3338zm2.00961 -65.9937c-43.0103,0 -76.8271,-12.3348 -101.497,-37.1662 -24.6697,-24.6697 -40.0074,-58.9947 -46.0131,-102.837l275.501 0c0,20.6736 -2.81807,39.4992 -8.50042,56.5 -5.65924,17.1625 -13.998,32.0152 -24.9931,44.35 -10.9951,12.4965 -24.3232,22.1519 -40.1691,28.9892 -15.8228,6.83729 -34.0017,10.1635 -54.3287,10.1635z"
   id="glyph40" />
   <glyph
   unicode="s"
   horiz-adv-x="434"
   d="M363 423.011c-3.99612,-7.34547 -10.1635,-11.0182 -18.5023,-11.0182 -4.98937,0 -10.6717,1.84792 -17.0008,5.49755 -6.32911,3.67273 -13.998,7.85365 -23.1683,12.3348 -9.17029,4.5043 -20.1654,8.68521 -32.8236,12.4965 -12.6813,3.83443 -27.6725,5.68234 -44.9968,5.68234 -15.0143,0 -28.5041,-1.84792 -40.5156,-5.68234 -11.9884,-3.81133 -22.1519,-9.14719 -30.6523,-15.8228 -8.50042,-6.6756 -15.0143,-14.3214 -19.5186,-23.1683 -4.4812,-8.8238 -6.81419,-18.5023 -6.81419,-28.8275 0,-13.0047 3.83443,-23.8381 11.3185,-32.5002 7.50716,-8.66211 17.3473,-16.1693 29.6822,-22.4984 12.3348,-6.32911 26.3328,-11.8267 41.9939,-16.6774 15.6611,-4.82768 31.8304,-10.0018 48.323,-15.4994 16.5158,-5.49755 32.5002,-11.665 48.1844,-18.3175 15.6611,-6.6756 29.6591,-15.0143 41.9939,-25.0162 12.3348,-10.0018 22.3367,-22.1519 29.8208,-36.658 7.50716,-14.5061 11.1799,-31.9921 11.1799,-52.3422 0,-23.3299 -4.18091,-44.8351 -12.4965,-64.654 -8.33872,-19.842 -20.6736,-37.0045 -37.0045,-51.5107 -16.331,-14.5061 -36.3347,-25.9863 -60.0111,-34.325 -23.6533,-8.33872 -51.0025,-12.4965 -82.0013,-12.4965 -35.3183,0 -67.3335,5.65924 -95.9993,17.0008 -28.6658,11.3185 -52.989,25.8246 -72.9927,43.4953l20.997 34.8332c2.67948,4.3195 5.84404,7.66885 9.49367,10.1635 3.67273,2.33299 8.50042,3.48794 14.5061,3.48794 6.00573,0 12.3348,-2.33299 19.0104,-6.99898 6.6525,-4.66599 14.8295,-9.81706 24.3232,-15.4994 9.49367,-5.65924 20.997,-10.8334 34.5098,-15.4994 13.4898,-4.66599 30.3289,-6.99898 50.656,-6.99898 17.3473,0 32.5002,2.33299 45.5049,6.83729 13.0047,4.5043 23.8381,10.51 32.5002,18.1789 8.66211,7.66885 15.176,16.4927 19.3338,26.4945 4.15781,10.0018 6.16742,20.8353 6.16742,32.1537 0,14.0211 -3.67273,25.5012 -11.1568,34.6715 -7.50716,9.17029 -17.509,17.0008 -29.8439,23.5147 -12.3348,6.6525 -26.3328,12.3348 -42.1787,17.1625 -15.8228,4.82768 -31.9921,9.81706 -48.4847,15.1529 -16.4927,5.33586 -32.6619,11.5033 -48.5078,18.3406 -15.8228,6.83729 -30.0055,15.3377 -42.3404,25.6629 -12.3117,10.3483 -22.1519,23.1683 -29.6591,38.3443 -7.50716,15.1529 -11.3416,33.6552 -11.3416,55.322 0,19.3338 4.01922,37.9978 12.0115,55.8302 7.99224,17.8324 19.6572,33.5166 34.9949,47.0064 15.3377,13.5129 34.1634,24.3463 56.5,32.3385 22.3367,7.99224 47.8379,11.9884 76.5037,11.9884 33.3318,0 63.3373,-5.33586 89.8318,-15.8228 26.4945,-10.6717 49.3394,-25.1779 68.6732,-43.657l-20.0037 -32.5002z"
   id="glyph42" />
   <glyph
   unicode="b"
   horiz-adv-x="558"
   d="M75.9956 0l0 736.995 89.5085 0 0 -308.325c20.997,25.8246 45.1585,46.8216 72.3228,62.6675 27.1644,15.8228 58.1632,23.6533 93.1812,23.6533 29.3357,0 55.8302,-5.49755 79.4835,-16.4927 23.6764,-10.9951 43.8418,-27.4878 60.5193,-49.3394 16.6543,-21.8285 29.4974,-48.8312 38.4829,-80.9849 9.00859,-32.3385 13.5129,-69.3431 13.5129,-111.337 0,-37.5127 -5.01247,-72.1611 -15.0143,-104.5 -10.0018,-32.1768 -24.3232,-60.0111 -43.1488,-83.5027 -18.8487,-23.4916 -41.8322,-41.9939 -69.0197,-55.5068 -27.1644,-13.4898 -57.8167,-20.3271 -91.8183,-20.3271 -32.6619,0 -60.3345,6.32911 -83.1793,19.1721 -22.8218,12.6582 -42.8255,30.4906 -59.8263,53.3355l-4.5043 -46.3365c-2.65638,-12.843 -10.3252,-19.1721 -23.0066,-19.1721l-57.4933 0zm226 444.008c-28.9892,0 -54.3287,-6.99898 -76.1573,-21.1817 -21.8285,-13.998 -41.9939,-34.0017 -60.3345,-59.6646l0 -241.5c15.9845,-21.6668 33.84,-37.0045 53.3355,-45.8283 19.4955,-8.8238 41.1623,-13.3281 65.1622,-13.3281 47.3298,0 83.6644,16.816 109.004,50.4943 25.3165,33.6552 37.9978,81.6779 37.9978,143.999 0,33.0084 -2.84117,61.3277 -8.66211,85.0042 -5.84404,23.6533 -14.3445,43.1719 -25.3396,58.3249 -10.9951,15.176 -24.508,26.1711 -40.4925,33.1701 -16.0076,6.99898 -34.1865,10.51 -54.5135,10.51z"
   id="glyph44" />
   <glyph
   unicode="p"
   horiz-adv-x="551"
   d="M72.9927 -171.995l0 678.994 53.0121 0c12.6582,0 20.6505,-6.16742 23.9998,-18.5023l7.48406 -60.1728c21.6668,26.3328 46.5213,47.6762 74.3555,63.6838 27.8111,15.9845 59.8263,23.9998 96.161,23.9998 28.9892,0 55.322,-5.68234 78.9984,-16.8391 23.6533,-11.1799 43.8187,-27.6725 60.4962,-49.5011 16.6774,-21.9902 29.4974,-48.9929 38.506,-81.4931 8.98549,-32.3385 13.4898,-69.6665 13.4898,-111.683 0,-37.4896 -4.98937,-72.3228 -14.9912,-104.5 -10.0018,-32.1537 -24.3463,-60.1497 -43.0103,-83.6644 -18.664,-23.4916 -41.4857,-41.9939 -68.6501,-55.6685 -27.1875,-13.4898 -57.8398,-20.1654 -91.8414,-20.1654 -31.3453,0 -58.0015,5.17417 -80.1765,15.4994 -22.1519,10.3483 -41.8322,25.0162 -58.833,44.0035l0 -223.991 -89.0003 0zm225.515 616.003c-29.0123,0 -54.3518,-6.6756 -76.1804,-20.0037 -21.8285,-13.5129 -41.9939,-32.3385 -60.3345,-56.6617l0 -245.334c16.331,-22.0133 34.3481,-37.5127 53.8437,-46.4982 19.4955,-9.00859 41.1623,-13.5129 65.1622,-13.5129 47.0064,0 83.1793,16.8391 108.496,50.4943 25.3396,33.84 37.9978,81.8396 37.9978,144.345 0,32.9853 -2.81807,61.3277 -8.66211,85.0042 -5.82094,23.6533 -14.3214,43.1488 -25.3396,58.3249 -10.9951,15.176 -24.4849,26.3328 -40.4925,33.3318 -16.0076,6.99898 -34.1634,10.51 -54.4904,10.51z"
   id="glyph46" />
   <glyph
   unicode="N"
   horiz-adv-x="756"
   d="M137 716.992c8.66211,0 15.176,-0.993255 19.3338,-3.16456 4.15781,-2.1713 8.8238,-6.6525 14.1597,-13.3281l414.996 -540.007c-0.993255,8.68521 -1.66312,17.1856 -1.98651,25.3396 -0.346484,8.17703 -0.508177,16.0076 -0.508177,23.6764l0 507.484 85.0042 0 0 -716.992 -48.9929 0c-7.66885,0 -13.998,1.33974 -19.1721,3.99612 -5.17417,2.67948 -10.3252,7.16068 -15.3377,13.5129l-414.488 539.499c0.66987,-8.33872 1.15495,-16.5158 1.50143,-24.508 0.323385,-7.99224 0.485078,-15.3377 0.485078,-21.9902l0 -510.51 -85.0042 0 0 716.992 50.0092 0z"
   id="glyph48" />
   <glyph
   unicode="K"
   horiz-adv-x="681"
   d="M193.5 403.007l36.4964 0c12.6813,0 22.8449,1.66312 30.3289,4.82768 7.50716,3.16456 14.5061,8.50042 21.1817,16.1693l238.497 270.004c7.32237,8.31562 14.5061,14.3214 21.3203,17.8324 6.83729,3.48794 15.4994,5.15107 26.1711,5.15107l82.5095 0 -273.007 -308.833c-6.99898,-7.66885 -13.4898,-14.3214 -19.6572,-19.6572 -6.16742,-5.33586 -12.843,-9.67846 -19.842,-13.0047 9.33198,-3.00286 17.509,-7.50716 24.508,-13.4898 6.99898,-6.00573 14.3214,-13.5129 21.9902,-22.4984l284.995 -339.508 -83.9878 0c-6.32911,0 -11.665,0.508177 -16.0076,1.50143 -4.3195,0.993255 -7.99224,2.33299 -11.1568,3.99612 -3.16456,1.66312 -6.16742,3.83443 -8.8469,6.51391 -2.65638,2.65638 -5.33586,5.49755 -7.99224,8.47732l-247.505 284.51c-3.67273,3.99612 -6.99898,7.50716 -10.1635,10.3252 -3.16456,2.84117 -6.83729,5.17417 -10.9951,7.18378 -4.18091,1.98651 -9.00859,3.48794 -14.5061,4.3195 -5.49755,0.831562 -12.3348,1.17805 -20.3271,1.17805l-44.0035 0 0 -328.005 -96.5074 0 0 716.992 96.5074 0 0 -313.984z"
   id="glyph50" />
   <glyph
   unicode="m"
   horiz-adv-x="821"
   d="M72.9927 0l0 506.999 53.0121 0c12.6582,0 20.6505,-6.16742 23.9998,-18.5023l6.49081 -52.1574c18.664,23.1683 39.6609,41.9939 62.8292,56.6617 23.1683,14.6678 50.0092,21.9902 80.6847,21.9902 34.325,0 62.1593,-9.49367 83.3179,-28.481 21.1817,-19.0104 36.3347,-44.6734 45.6666,-77.1736 6.99898,18.3406 16.331,34.325 27.8342,47.6531 11.5033,13.3512 24.3463,24.3463 38.6677,33.0084 14.3445,8.66211 29.6822,14.9912 45.8283,19.0104 16.1693,3.99612 32.5002,5.98263 49.1777,5.98263 26.6562,0 50.4943,-4.3195 71.3296,-12.8199 20.8353,-8.50042 38.506,-20.8353 53.0121,-37.1662 14.483,-16.331 25.5012,-36.4964 33.147,-60.3345 7.66885,-23.8381 11.5033,-51.1642 11.5033,-81.8396l0 -322.831 -89.0003 0 0 322.831c0,39.6609 -8.66211,69.8281 -25.9863,90.34 -17.3473,20.4888 -42.5021,30.8371 -75.5105,30.8371 -14.6678,0 -28.5041,-2.67948 -41.6705,-7.83055 -13.1664,-5.17417 -24.8314,-12.6813 -34.8332,-22.6832 -10.0018,-10.0018 -17.8324,-22.6601 -23.6533,-37.8361 -5.84404,-15.1529 -8.8469,-32.8236 -8.8469,-52.8273l0 -322.831 -89.0003 0 0 322.831c0,40.6773 -8.15393,71.1679 -24.4849,91.1716 -16.331,20.0037 -40.1691,30.0055 -71.5144,30.0055 -21.9902,0 -42.3173,-6.00573 -61.166,-17.8324 -18.8256,-11.8498 -36.1499,-28.019 -51.8341,-48.3461l0 -377.83 -89.0003 0z"
   id="glyph52" />
   <glyph
   unicode="H"
   horiz-adv-x="756"
   d="M667.999 0l-97.5007 0 0 325.996 -386.007 0 0 -325.996 -97.5007 0 0 716.992 97.5007 0 0 -319.99 386.007 0 0 319.99 97.5007 0 0 -716.992z"
   id="glyph54" />
   <glyph
   unicode="E"
   horiz-adv-x="581"
   d="M528.504 716.992l0 -78.9984 -344.013 0 0 -237.989 278.504 0 0 -75.9956 -278.504 0 0 -245.011 344.013 0 0 -78.9984 -441.513 0 0 716.992 441.513 0z"
   id="glyph56" />
   <glyph
   unicode="g"
   horiz-adv-x="510"
   d="M243.509 514.991c21.9902,0 42.6638,-2.33299 61.8128,-7.16068 19.1721,-4.82768 36.5194,-11.9884 52.1805,-21.3203l137.508 0 0 -33.1701c0,-11.0182 -7.02208,-18.1789 -21.02,-21.1817l-57.4933 -7.99224c11.3416,-21.6668 17.0008,-45.8283 17.0008,-72.5076 0,-24.6697 -4.66599,-47.1681 -14.1597,-67.3335 -9.49367,-20.1654 -22.6832,-37.4896 -39.4992,-51.8341 -16.8391,-14.3214 -36.8428,-25.3165 -60.0111,-32.9853 -23.1683,-7.66885 -48.6695,-11.5033 -76.319,-11.5033 -23.6764,0 -46.0131,2.84117 -67.0101,8.33872 -10.6717,-6.83729 -18.664,-14.1828 -24.1615,-22.175 -5.49755,-7.83055 -8.33872,-15.6611 -8.33872,-23.1683 0,-12.4965 4.82768,-21.8285 14.5061,-28.1576 9.65536,-6.32911 22.4984,-11.0182 38.506,-13.6746 15.9845,-2.84117 34.1634,-4.15781 54.4904,-4.15781 20.3271,0 41.1623,0 62.321,0 21.1817,0 41.8553,-1.84792 62.1824,-5.49755 20.3271,-3.83443 38.506,-9.84016 54.4904,-18.3406 16.0076,-8.33872 28.8275,-20.0037 38.506,-34.8332 9.65536,-14.8295 14.5061,-34.1634 14.5061,-57.8398 0,-21.8285 -5.33586,-43.1719 -16.1693,-63.6607 -10.8334,-20.6736 -26.4945,-38.8293 -46.8447,-54.9986 -20.3271,-16.0076 -45.1585,-28.8275 -74.4941,-38.3443 -29.3357,-9.65536 -62.5058,-14.483 -99.5103,-14.483 -36.9814,0 -69.32,3.64964 -97.1542,10.9951 -27.8342,7.32237 -51.0025,17.1625 -69.3431,29.4974 -18.3175,12.3348 -31.9921,26.6562 -41.1623,42.8255 -9.17029,16.1693 -13.8363,33.1701 -13.8363,50.8408 0,24.9931 8.01534,46.1748 23.8381,63.6607 15.8459,17.6707 37.5127,31.507 65.1622,41.8322 -14.3214,6.6756 -25.6629,15.4994 -34.1634,26.6793 -8.50042,11.1568 -12.8199,25.9863 -12.8199,44.6503 0,7.18378 1.31664,14.8526 3.99612,22.6832 2.65638,7.66885 6.83729,15.4994 12.3348,23.1683 5.49755,7.48406 12.1501,14.8295 20.1654,21.8285 7.99224,6.99898 17.3242,13.1664 27.9959,18.5023 -24.9931,13.998 -44.5117,32.6619 -58.6713,55.8302 -14.1597,23.3299 -21.3203,50.4943 -21.3203,81.4931 0,24.8314 4.82768,47.1681 14.3214,67.4951 9.49367,20.1654 22.6601,37.5127 39.6609,51.6724 17.0008,14.1597 37.351,25.1779 60.8426,32.8467 23.4916,7.64575 49.1546,11.4802 77.1736,11.4802zm157.997 -541.324c0,13.0047 -3.51104,23.3299 -10.51,31.1605 -6.99898,7.83055 -16.4927,13.8363 -28.5041,18.1789 -11.9884,4.15781 -25.8246,7.32237 -41.4857,9.33198 -15.6842,2.1713 -32.1768,3.16456 -49.5011,3.16456 -17.3473,0 -34.9949,0 -53.0121,0 -17.9941,0 -35.1566,2.1713 -51.4876,6.6525 -19.0104,-8.98549 -34.3481,-19.9806 -46.1748,-32.9853 -11.8267,-13.0047 -17.8324,-28.5041 -17.8324,-46.4982 0,-11.3416 3.00286,-22.0133 8.8238,-31.8304 5.84404,-9.84016 14.6678,-18.3406 26.6793,-25.5012 11.9884,-7.18378 27.1644,-12.843 45.3433,-17.0008 18.1558,-4.18091 39.4992,-6.32911 64.1458,-6.32911 23.9998,0 45.5049,2.1482 64.5154,6.6525 18.9873,4.3426 35.1566,10.6717 48.323,18.8256 13.1664,8.17703 23.1683,17.8555 30.1672,29.0123 6.99898,11.3416 10.51,23.6764 10.51,37.1662zm-157.997 273.33c17.9941,0 34.0017,2.49469 47.8148,7.50716 13.8363,4.98937 25.3396,11.9884 34.6715,20.997 9.33198,9.17029 16.331,19.842 20.997,32.3385 4.66599,12.6582 6.99898,26.3328 6.99898,41.4857 0,30.9988 -9.33198,55.6685 -28.1576,74.1707 -18.8256,18.3406 -46.3365,27.5109 -82.3247,27.5109 -35.6648,0 -62.8523,-9.17029 -81.6779,-27.5109 -18.8256,-18.5023 -28.3424,-43.1719 -28.3424,-74.1707 0,-15.1529 2.51779,-28.8275 7.34547,-41.4857 4.82768,-12.4965 11.8267,-23.1683 21.1586,-32.3385 9.33198,-9.00859 20.8353,-16.0076 34.5098,-20.997 13.6746,-5.01247 29.3357,-7.50716 47.0064,-7.50716z"
   id="glyph58" />
   <glyph
   unicode="u"
   horiz-adv-x="555"
   d="M150.005 506.999l0 -323.339c0,-38.3212 8.8238,-68.165 26.4945,-89.162 17.6707,-20.997 44.3269,-31.507 79.9917,-31.507 26.0094,0 50.5174,6.16742 73.5009,18.5023 23.0066,12.3348 44.1652,29.4974 63.499,51.5107l0 373.995 89.0003 0 0 -506.999 -52.989 0c-12.6582,0 -20.6736,6.16742 -23.9998,18.5023l-6.99898 54.4904c-22.0133,-24.3232 -46.6599,-43.8187 -74.0091,-58.6482 -27.3261,-14.8526 -58.6713,-22.3367 -93.9897,-22.3367 -27.6725,0 -51.9957,4.66599 -73.1775,13.8363 -21.1586,9.14719 -38.991,21.9902 -53.3355,38.6446 -14.3214,16.6774 -24.9931,37.0045 -32.1537,60.681 -7.16068,23.6533 -10.8334,49.8244 -10.8334,78.4903l0 323.339 89.0003 0z"
   id="glyph60" />
   <glyph
   unicode=" "
   horiz-adv-x="192"
   d=""
   id="glyph62" />
   <glyph
   unicode="d"
   horiz-adv-x="558"
   d="M429.502 0c-12.6582,0 -20.6736,6.16742 -23.9998,18.5023l-7.99224 61.4894c-21.6668,-26.3328 -46.3365,-47.3298 -74.1707,-63.1525 -27.8342,-15.8459 -59.8494,-23.8381 -95.8376,-23.8381 -29.0123,0 -55.3451,5.65924 -78.9984,16.8391 -23.6764,11.1568 -43.8418,27.4878 -60.4962,49.1546 -16.6774,21.8285 -29.4974,48.8312 -38.506,81.1697 -9.00859,32.3385 -13.4898,69.5048 -13.4898,111.66 0,37.351 4.98937,71.9994 14.9912,104.338 10.0018,32.1768 24.508,60.0111 43.3336,83.8261 18.8256,23.6764 41.6705,42.1787 68.6732,55.6685 26.9796,13.5129 57.655,20.3502 91.98,20.3502 31.0219,0 57.5164,-5.33586 79.5066,-15.8459 22.0133,-10.4869 41.6705,-25.1548 58.9947,-44.1652l0 280.999 89.0003 0 0 -736.995 -52.989 0zm-172.503 65.0005c29.0123,0 54.4904,6.6756 76.342,20.0037 21.8285,13.3281 41.8322,32.1537 60.1497,56.5l0 245.334c-16.331,21.9902 -34.1634,37.4896 -53.6589,46.3365 -19.4955,8.8238 -41.1623,13.3281 -64.8388,13.3281 -47.3298,0 -83.6644,-16.8391 -109.004,-50.6791 -25.3165,-33.6552 -37.9978,-81.6548 -37.9978,-144.161 0,-32.9853 2.84117,-61.3277 8.50042,-84.8194 5.68234,-23.5147 13.998,-42.8486 25.0162,-58.0015 10.9951,-15.176 24.4849,-26.3328 40.4925,-33.3318 16.0076,-6.99898 34.325,-10.51 54.9986,-10.51z"
   id="glyph64" />
   <glyph
   unicode="P"
   horiz-adv-x="610"
   d="M193.5 267.994l0 -267.994 -96.5074 0 0 716.992 211.517 0c45.3202,0 84.8194,-5.33586 118.313,-15.8228 33.5166,-10.51 61.166,-25.3396 83.1793,-44.6734 21.9902,-19.3338 38.506,-42.8255 49.3394,-70.1515 10.8334,-27.3492 16.1693,-57.8398 16.1693,-91.5181 0,-33.4935 -5.84404,-63.9841 -17.509,-91.6567 -11.665,-27.6725 -28.6658,-51.5107 -51.1642,-71.6761 -22.4984,-20.0037 -50.4943,-35.5031 -83.8261,-46.6599 -33.3549,-11.1568 -71.5144,-16.8391 -114.502,-16.8391l-115.01 0zm0 77.0119l115.01 0c27.6495,0 52.1574,3.64964 73.3161,10.9951 21.1817,7.32237 38.8524,17.6707 53.1738,30.8371 14.3445,13.1664 25.1779,28.8275 32.5002,47.1681 7.32237,18.3175 10.9951,38.4829 10.9951,60.4962 0,45.6666 -13.998,81.3314 -42.1556,106.994 -28.1807,25.6629 -70.8445,38.506 -127.83,38.506l-115.01 0 0 -294.997z"
   id="glyph66" />
   <glyph
   unicode="r"
   horiz-adv-x="403"
   d="M72.9927 0l0 506.999 51.0025 0c9.67846,0 16.331,-2.00961 20.0037,-5.82094 3.67273,-3.83443 6.16742,-10.6717 7.50716,-20.1885l5.98263 -83.9878c17.3473,37.4896 38.8524,66.6636 64.3537,87.4988 25.5012,20.997 55.322,31.507 89.647,31.507 14.0211,0 26.6793,-1.66312 38.0209,-4.85078 11.3185,-3.32625 21.8285,-7.83055 31.4839,-13.6515l-11.5033 -66.5019c-2.33299,-8.33872 -7.48406,-12.4965 -15.4994,-12.4965 -4.66599,0 -11.8267,1.66312 -21.482,4.82768 -9.67846,3.16456 -23.1683,4.66599 -40.5156,4.66599 -30.9988,0 -56.8234,-9.33198 -77.6587,-28.1576 -20.8353,-18.8487 -38.3443,-46.1748 -52.3422,-82.0013l0 -317.842 -89.0003 0z"
   id="glyph68" />
   <glyph
   unicode="a"
   horiz-adv-x="506"
   d="M445.001 0l-39.4992 0c-8.66211,0 -15.6611,1.33974 -20.997,3.99612 -5.33586,2.67948 -8.8469,8.50042 -10.51,17.1625l-10.0018 47.1681c-13.3281,-11.9884 -26.3328,-22.8218 -38.991,-32.3154 -12.6582,-9.67846 -26.0094,-17.6707 -40.0074,-24.1846 -13.998,-6.49081 -28.8275,-11.5033 -44.6503,-14.8295 -15.8459,-3.32625 -33.5166,-4.98937 -52.8504,-4.98937 -19.6572,0 -37.9978,2.81807 -55.1603,8.31562 -17.1625,5.52065 -32.1768,13.8363 -44.8351,24.8545 -12.6582,10.9951 -22.6601,24.9931 -30.1672,41.9939 -7.50716,16.8391 -11.3416,36.8197 -11.3416,59.988 0,20.1654 5.52065,39.4992 16.5158,58.0015 10.9951,18.664 28.8275,35.1797 53.3355,49.6628 24.4849,14.3445 56.5,26.1711 96.161,35.3414 39.6609,9.17029 88.1687,13.8363 145.5,13.8363l0 39.8226c0,39.4992 -8.33872,69.5048 -25.1779,89.6701 -16.816,20.3502 -41.8322,30.5137 -74.8175,30.5137 -21.6668,0 -39.8457,-2.67948 -54.6752,-8.17703 -14.8295,-5.49755 -27.6725,-11.665 -38.506,-18.5023 -10.8334,-6.83729 -20.1654,-13.0047 -27.9959,-18.5023 -7.83055,-5.49755 -15.6611,-8.31562 -23.3299,-8.31562 -6.00573,0 -11.1568,1.47833 -15.6611,4.66599 -4.5043,3.16456 -8.17703,6.99898 -10.8334,11.665l-16.0076 27.9959c27.9959,27.1644 58.1632,47.4915 90.5017,61.0043 32.3385,13.4898 68.165,20.1654 107.503,20.1654 28.3424,0 53.4972,-4.66599 75.4874,-13.998 22.0133,-9.33198 40.5156,-22.3367 55.5068,-39.0141 15.0143,-16.6543 26.3328,-36.8197 34.0017,-60.6579 7.66885,-23.6764 11.5033,-49.6628 11.5033,-78.0052l0 -324.332zm-231.013 54.9986c15.6842,0 30.0055,1.50143 43.0103,4.66599 13.0047,3.16456 25.3396,7.50716 36.8428,13.3281 11.4802,5.68234 22.4984,12.6813 32.9853,20.997 10.51,8.17703 20.6736,17.509 30.6754,28.019l0 104.985c-41.0006,0 -75.8339,-2.65638 -104.5,-7.83055 -28.6658,-5.17417 -51.9957,-11.8267 -70.0129,-20.3271 -17.9941,-8.33872 -30.9988,-18.1789 -39.1527,-29.4974 -8.17703,-11.3416 -12.3348,-23.9998 -12.3348,-38.1826 0,-13.3281 2.1713,-24.8314 6.49081,-34.4867 4.3426,-9.67846 10.1635,-17.6707 17.509,-23.8381 7.32237,-6.16742 16.0076,-10.6717 25.9863,-13.4898 10.0018,-2.84117 20.8353,-4.3426 32.5002,-4.3426z"
   id="glyph70" />
   <glyph
   unicode="o"
   horiz-adv-x="555"
   d="M277.996 514.506c37.0045,0 70.498,-6.16742 100.342,-18.5023 29.8208,-12.3348 55.1603,-29.8439 75.9956,-52.5039 20.8353,-22.6601 36.8428,-50.0092 47.9996,-82.163 11.1568,-32.1768 16.6774,-68.165 16.6774,-107.826 0,-40.0074 -5.52065,-76.0187 -16.6774,-108.011 -11.1568,-31.9921 -27.1644,-59.3412 -47.9996,-82.0013 -20.8353,-22.6601 -46.1748,-40.0074 -75.9956,-52.1574 -29.8439,-12.1731 -63.3373,-18.3406 -100.342,-18.3406 -37.0045,0 -70.3363,6.16742 -100.157,18.3406 -29.8439,12.1501 -55.3451,29.4974 -76.342,52.1574 -20.997,22.6601 -37.1662,50.0092 -48.5078,82.0013 -11.3185,31.9921 -16.9777,68.0033 -16.9777,108.011 0,39.6609 5.65924,75.6491 16.9777,107.826 11.3416,32.1537 27.5109,59.5029 48.5078,82.163 20.997,22.6601 46.4982,40.1691 76.342,52.5039 29.8208,12.3348 63.1525,18.5023 100.157,18.5023zm0 -452c50.0092,0 87.3372,16.816 112.007,50.3326 24.6697,33.4935 37.0045,80.3382 37.0045,140.488 0,60.3345 -12.3348,107.341 -37.0045,141.181 -24.6697,33.6552 -61.9976,50.4943 -112.007,50.4943 -25.3396,0 -47.3298,-4.3426 -65.9937,-13.0047 -18.664,-8.66211 -34.1634,-21.1586 -46.6599,-37.4896 -12.5196,-16.331 -21.8516,-36.4964 -28.019,-60.3345 -6.16742,-23.8381 -9.33198,-50.8408 -9.33198,-80.8463 0,-29.9824 3.16456,-56.9851 9.33198,-80.6616 6.16742,-23.6533 15.4994,-43.657 28.019,-59.8263 12.4965,-16.1693 27.9959,-28.5041 46.6599,-37.3279 18.664,-8.68521 40.6542,-13.0047 65.9937,-13.0047z"
   id="glyph72" />
   <glyph
   unicode="l"
   horiz-adv-x="256"
   d="M171.995 736.995l0 -736.995 -89.0003 0 0 736.995 89.0003 0z"
   id="glyph74" />
   <glyph
   unicode="G"
   horiz-adv-x="733"
   d="M406.495 71.0062c19.3338,0 37.1662,0.831562 53.3355,2.65638 16.1693,1.84792 31.3453,4.5043 45.6666,8.17703 14.3445,3.64964 27.8342,7.99224 40.4925,13.0047 12.6813,5.15107 25.3396,10.9951 38.0209,17.4859l0 158.667 -111.014 0c-6.32911,0 -11.3416,1.84792 -15.1529,5.49755 -3.83443,3.67273 -5.84404,8.17703 -5.84404,13.5129l0 54.9986 219.994 0 0 -275.501c-17.9941,-13.0047 -36.658,-24.3463 -56.1536,-34.0017 -19.5186,-9.67846 -40.3308,-17.6707 -62.5058,-24.1615 -22.175,-6.51391 -46.0131,-11.3416 -71.3296,-14.5061 -25.3396,-3.16456 -52.8504,-4.82768 -82.5095,-4.82768 -51.9957,0 -99.672,8.98549 -143.006,26.8179 -43.3336,17.8324 -80.6616,42.8486 -111.984,75.0023 -31.3453,32.1768 -55.6685,70.8445 -73.1775,115.841 -17.4859,44.9968 -26.3328,94.4978 -26.3328,148.665 0,54.6752 8.66211,104.5 25.8477,149.496 17.1625,44.9968 41.6474,83.6644 73.4778,115.841 31.8535,32.1537 70.3363,57.1699 115.518,74.8175 45.1585,17.6707 95.6528,26.5176 151.668,26.5176 28.3193,0 54.6521,-2.1713 78.9984,-6.32911 24.3232,-4.18091 46.9833,-10.1866 67.8185,-18.1789 20.8353,-7.83055 40.0074,-17.509 57.6781,-28.6658 17.6707,-11.3416 34.1634,-23.9998 49.5011,-38.1595l-27.5109 -43.3336c-5.65924,-8.8469 -12.9816,-13.3512 -21.9902,-13.3512 -5.33586,0 -11.1799,1.84792 -17.509,5.52065 -8.33872,4.66599 -17.6707,10.3252 -27.9959,17.0008 -10.3252,6.6525 -22.8218,13.1664 -37.6744,19.3338 -14.8295,6.16742 -32.3154,11.3185 -52.4808,15.6611 -20.1654,4.3195 -44.1652,6.49081 -71.8378,6.49081 -40.3308,0 -76.8271,-6.49081 -109.512,-19.6572 -32.6619,-13.1664 -60.4962,-32.0152 -83.5027,-56.5 -22.9835,-24.508 -40.6542,-54.1671 -52.989,-89.0003 -12.3348,-34.8332 -18.5023,-74.0091 -18.5023,-117.343 0,-45.3202 6.49081,-85.6509 19.3338,-121.154 12.843,-35.5031 30.8371,-65.6703 54.1671,-90.34 23.3299,-24.6697 51.0025,-43.4953 82.9945,-56.5 32.0152,-13.0047 67.3335,-19.4955 106.001,-19.4955z"
   id="glyph76" />
   <glyph
   unicode="z"
   horiz-adv-x="462"
   d="M426.499 468.493c0,-6.32911 -1.15495,-12.3348 -3.48794,-18.1558 -2.33299,-5.84404 -5.33586,-11.1799 -9.00859,-15.8459l-274 -364.987 276.495 0 0 -69.5048 -381.502 0 0 37.0045c0,4.3195 1.17805,9.49367 3.34935,15.3377 2.1482,5.82094 5.15107,11.3185 9.14719,16.6543l275.501 368.013 -272.498 0 0 69.4817 376.005 0 0 -37.9978z"
   id="glyph78" />
   <glyph
   unicode="i"
   horiz-adv-x="256"
   d="M171.995 506.999l0 -506.999 -89.0003 0 0 506.999 89.0003 0zm20.0037 158.99c0,-8.66211 -1.66312,-16.6543 -5.17417,-24.1615 -3.48794,-7.48406 -8.15393,-14.1597 -13.998,-20.0037 -5.82094,-5.82094 -12.6582,-10.4869 -20.3271,-13.8132 -7.66885,-3.34935 -15.8228,-5.01247 -24.508,-5.01247 -8.66211,0 -16.6543,1.66312 -24.1615,5.01247 -7.50716,3.32625 -14.1597,7.99224 -20.0037,13.8132 -5.82094,5.84404 -10.4869,12.5196 -13.8363,20.0037 -3.32625,7.50716 -4.98937,15.4994 -4.98937,24.1615 0,8.68521 1.66312,17.0008 4.98937,24.8545 3.34935,7.83055 8.01534,14.6678 13.8363,20.4888 5.84404,5.84404 12.4965,10.3252 20.0037,13.6746 7.50716,3.32625 15.4994,4.98937 24.1615,4.98937 8.68521,0 16.8391,-1.66312 24.508,-4.98937 7.66885,-3.34935 14.5061,-7.83055 20.3271,-13.6746 5.84404,-5.82094 10.51,-12.6582 13.998,-20.4888 3.51104,-7.85365 5.17417,-16.1693 5.17417,-24.8545z"
   id="glyph80" />
  </font>
  <font
   id="FontID0"
   horiz-adv-x="709"
   font-variant="normal"
   style="fill-rule:nonzero"
   font-style="normal"
   font-weight="700">
	<font-face
   font-family="Lato"
   id="font-face83">
		<font-face-src>
			<font-face-name
   name="Lato Bold" />
		</font-face-src>
	</font-face>
   <missing-glyph
   id="missing-glyph87"><path
     d="M0 0z"
     id="path85" /></missing-glyph>
   <glyph
   unicode="3"
   horiz-adv-x="579"
   d="M312.498 731.003c33.3374,0 63.5044,-4.83343 90.3337,-14.3386 26.8351,-9.49939 49.6682,-22.6657 68.667,-39.499 18.9988,-17.0007 33.6665,-36.6636 43.8358,-59.4968 10.1635,-22.6657 15.1644,-47.1678 15.1644,-73.6679 0,-23.0007 -2.50045,-43.3334 -7.66303,-60.8365 -5.16836,-17.4974 -12.6697,-32.8292 -22.504,-45.8281 -9.83432,-13.1663 -21.8342,-24.1671 -35.9995,-33.1699 -14.1654,-8.99699 -30.3345,-16.4983 -48.3343,-22.4983 43.3334,-13.6687 75.666,-34.4981 97.0035,-62.3322 21.3318,-28.0015 31.9976,-63.1695 31.9976,-105.336 0,-35.832 -6.66401,-67.668 -19.9978,-95.3346 -13.3338,-27.4991 -31.3336,-50.6673 -53.9993,-69.4986 -22.6715,-18.8313 -48.8367,-32.9967 -78.6688,-42.6635 -29.8321,-9.66686 -61.5006,-14.5003 -94.8322,-14.5003 -36.3344,0 -68.0029,4.16356 -94.9997,12.4965 -27.0025,8.3329 -50.4998,20.6677 -70.5034,37.0043 -19.9978,16.3309 -36.9985,36.3287 -50.9964,59.9992 -14.0037,23.6647 -26.0035,50.9964 -35.9995,82.0008l54.4959 22.4983c9.3377,3.9961 18.8371,5.99992 28.5039,5.99992 8.66206,0 16.4983,-1.83636 23.3298,-5.50329 6.83725,-3.66694 11.9998,-8.99699 15.6668,-15.9959 5.99992,-11.6707 12.6697,-23.1681 19.8361,-34.5039 7.16641,-11.33 15.6668,-21.3318 25.6628,-30.1671 10.0018,-8.82952 21.8342,-15.9959 35.3354,-21.4992 13.5013,-5.49752 29.503,-8.3329 48.1668,-8.3329 21.0026,0 39.3315,3.49947 54.9983,10.3367 15.6668,6.83148 28.8331,15.6668 39.3373,26.6618 10.4984,11.0008 18.3289,23.3356 23.4973,36.8368 5.16836,13.5013 7.66881,26.9967 7.66881,40.6655 0,17.3357 -1.83636,33.1699 -5.50329,47.3353 -3.66694,14.1654 -11.33,26.1652 -23.0007,36.167 -11.6649,9.99602 -28.3307,17.8323 -50.1649,23.4973 -21.8342,5.66499 -51.1639,8.50037 -87.8333,8.50037l0 88.0007c30.3345,0 55.5007,2.66791 75.4985,7.99797 20.0036,5.33583 35.9995,12.8372 47.8377,22.3366 11.8324,9.49939 19.9978,20.9968 24.6638,34.3306 4.66596,13.3338 6.99894,28.0015 6.99894,44.1707 0,34.3306 -9.33192,60.3283 -27.9958,77.8315 -18.6696,17.4974 -44.1707,26.3327 -76.5033,26.3327 -29.3297,0 -53.6643,-7.83628 -72.9981,-23.3356 -19.3337,-15.4993 -32.835,-35.3296 -40.5038,-59.8317 -3.9961,-12.6639 -9.49939,-21.6667 -16.4983,-27.1642 -6.99894,-5.50329 -16.1634,-8.3329 -27.4991,-8.3329 -5.33583,0 -11.0008,0.496625 -17.0007,1.49565l-65.0001 11.5032c5.0009,34.6656 14.6678,65.1676 29.0006,91.3327 14.3328,26.1652 32.3326,47.9994 53.8318,65.4967 21.4992,17.5031 46.1688,30.6695 74.0029,39.5048 27.8341,8.82952 57.6662,13.3338 89.6639,13.3338z"
   id="glyph89" />
   <glyph
   unicode="U"
   horiz-adv-x="728"
   d="M363.993 109.004c26.0094,0 49.3394,4.3195 69.8512,13.0047 20.4888,8.66211 37.813,20.8353 51.9957,36.4964 14.1597,15.6611 24.9931,34.6715 32.5002,56.8234 7.48406,22.3367 11.1568,47.3298 11.1568,75.0023l0 432.667 134.505 0 0 -432.99c0,-43.0103 -6.83729,-82.6712 -20.6736,-119.168 -13.8363,-36.4964 -33.84,-68.0033 -59.8263,-94.4978 -26.0094,-26.5176 -57.4933,-47.1681 -94.4978,-61.9976 -37.0045,-14.8526 -78.675,-22.3367 -125.012,-22.3367 -46.3365,0 -87.9839,7.48406 -124.988,22.3367 -37.0045,14.8295 -68.3267,35.48 -94.1744,61.9976 -25.8246,26.4945 -45.6666,58.0015 -59.5029,94.4978 -13.8363,36.4964 -20.8353,76.1573 -20.8353,119.168l0 432.99 134.505 0 0 -432.158c0,-27.6725 3.83443,-52.6656 11.3416,-75.0023 7.48406,-22.175 18.1558,-41.3471 32.1537,-57.1699 13.998,-15.8228 31.3453,-27.9959 51.8341,-36.658 20.5119,-8.68521 43.6801,-13.0047 69.6665,-13.0047z"
   id="glyph91" />
   <glyph
   unicode="D"
   horiz-adv-x="747"
   d="M715.005 361.499c0,-52.989 -8.8469,-101.659 -26.4945,-146.009 -17.6707,-44.3269 -42.5021,-82.4864 -74.5172,-114.502 -31.9921,-31.9921 -70.498,-56.8234 -115.495,-74.4941 -44.9968,-17.6707 -94.8212,-26.4945 -149.496,-26.4945l-276.009 0 0 722.997 276.009 0c54.6752,0 104.5,-8.8238 149.496,-26.6562 44.9968,-17.8324 83.5027,-42.6638 115.495,-74.5172 32.0152,-31.8304 56.8465,-69.9898 74.5172,-114.317 17.6476,-44.35 26.4945,-92.9964 26.4945,-146.009zm-137.508 0c0,39.6609 -5.33586,75.3257 -16.0076,106.833 -10.6486,31.507 -25.8246,58.1632 -45.4818,79.9917 -19.6803,21.8516 -43.5184,38.506 -71.6761,50.1709 -28.1576,11.665 -59.988,17.509 -95.3294,17.509l-140.511 0 0 -509.009 140.511 0c35.3414,0 67.1718,5.84404 95.3294,17.509 28.1576,11.665 51.9957,28.5041 71.6761,50.3326 19.6572,21.8285 34.8332,48.5078 45.4818,79.9917 10.6717,31.507 16.0076,67.0101 16.0076,106.671z"
   id="glyph93" />
   <glyph
   unicode="R"
   horiz-adv-x="654"
   d="M212.002 283.008l0 -282.5 -134.505 0 0 723.482 220.503 0c49.3394,0 91.6567,-5.15107 126.836,-15.3146 35.1566,-10.1866 64.0072,-24.3463 86.5056,-42.6869 22.4984,-18.4792 38.991,-40.3308 49.5011,-65.832 10.4869,-25.6629 15.6611,-53.6589 15.6611,-84.3343 0,-24.4849 -3.51104,-47.4915 -10.6717,-69.1583 -7.16068,-21.6668 -17.509,-41.324 -30.9988,-58.9947 -13.4898,-17.8324 -30.1672,-33.3318 -50.0092,-46.6599 -19.8189,-13.3512 -42.5021,-23.9998 -67.8185,-32.0152 17.0008,-9.65536 31.6687,-23.4916 44.0035,-41.4857l180.98 -267.001 -120.992 0c-11.665,0 -21.5051,2.33299 -29.6591,6.99898 -8.17703,4.66599 -15.176,11.3185 -20.8353,20.0037l-151.991 231.498c-5.68234,8.66211 -11.8498,14.8295 -18.6871,18.5023 -6.81419,3.64964 -17.0008,5.49755 -30.3289,5.49755l-57.4933 0zm0 96.9925l83.9878 0c25.3396,0 47.5146,3.16456 66.3402,9.49367 18.8256,6.32911 34.325,15.176 46.4982,26.3328 12.1731,11.1799 21.1817,24.3463 27.1644,39.684 6.00573,15.3146 9.00859,32.1537 9.00859,50.4943 0,36.658 -12.0115,64.8388 -36.173,84.496 -24.1615,19.6572 -61.166,29.4974 -110.829,29.4974l-85.9974 0 0 -239.998z"
   id="glyph95" />
   <glyph
   unicode="A"
   horiz-adv-x="709"
   d="M708.491 0l-103.991 0c-11.665,0 -21.1586,3.00286 -28.6658,8.8238 -7.50716,5.84404 -13.0047,13.0047 -16.331,21.6668l-54.0054 147.51 -299.501 0 -54.0054 -147.51c-2.65638,-7.64575 -7.83055,-14.6678 -15.6611,-20.997 -7.83055,-6.32911 -17.4859,-9.49367 -28.8275,-9.49367l-104.5 0 284.002 722.997 137.485 0 284.002 -722.997zm-467.985 272.498l230.504 0 -88.007 240.506c-3.99612,10.6717 -8.33872,23.3299 -13.1664,37.8361 -4.82768,14.483 -9.67846,30.1672 -14.3445,47.1681 -4.66599,-17.0008 -9.17029,-32.8467 -13.6515,-47.5146 -4.5043,-14.6678 -9.00859,-27.4878 -13.3512,-38.4829l-87.9839 -239.513z"
   id="glyph97" />
   <glyph
   unicode="O"
   horiz-adv-x="799"
   d="M766.493 361.499c0,-52.989 -8.8238,-102.005 -26.4945,-147.163 -17.6707,-45.1585 -42.5021,-84.3343 -74.4941,-117.343 -32.0152,-32.9853 -70.498,-58.6482 -115.495,-77.1505 -45.0199,-18.5023 -94.8443,-27.8342 -149.52,-27.8342 -54.6521,0 -104.5,9.33198 -149.658,27.8342 -45.1585,18.5023 -83.8261,44.1652 -116.003,77.1505 -32.1537,33.0084 -57.1699,72.1842 -74.8175,117.343 -17.6707,45.1585 -26.5176,94.1744 -26.5176,147.163 0,53.0121 8.8469,102.167 26.5176,147.325 17.6476,45.1816 42.6638,84.1726 74.8175,117.181 32.1768,32.9853 70.8445,58.833 116.003,77.3353 45.1585,18.5023 95.006,27.6495 149.658,27.6495 54.6752,0 104.5,-9.33198 149.52,-27.9959 44.9968,-18.664 83.4796,-44.3269 115.495,-77.1505 31.9921,-32.8467 56.8234,-71.8378 74.4941,-117.019 17.6707,-45.1585 26.4945,-94.313 26.4945,-147.325zm-137.993 -0.161693c0,39.4992 -5.17417,75.164 -15.6611,106.486 -10.51,31.507 -25.6629,58.348 -45.3433,80.1765 -19.6572,21.9902 -43.4953,38.8293 -71.653,50.4943 -28.1807,11.665 -60.0111,17.509 -95.3525,17.509 -35.3183,0 -67.1487,-5.84404 -95.4911,-17.509 -28.3424,-11.665 -52.3422,-28.5041 -72.1611,-50.4943 -19.842,-21.8285 -35.1797,-48.6695 -45.8283,-80.1765 -10.6717,-31.3222 -16.0076,-66.987 -16.0076,-106.486 0,-39.6609 5.33586,-75.3257 16.0076,-106.671 10.6486,-31.507 25.9863,-58.1632 45.8283,-79.9917 19.8189,-21.8516 43.8187,-38.506 72.1611,-50.1709 28.3424,-11.665 60.1728,-17.509 95.4911,-17.509 35.3414,0 67.1718,5.84404 95.3525,17.509 28.1576,11.665 51.9957,28.3193 71.653,50.1709 19.6803,21.8285 34.8332,48.4847 45.3433,79.9917 10.4869,31.3453 15.6611,67.0101 15.6611,106.671z"
   id="glyph99" />
   <glyph
   unicode="L"
   horiz-adv-x="517"
   d="M207.498 110.99l289.499 0 0 -110.99 -424.004 0 0 722.997 134.505 0 0 -612.007z"
   id="glyph101" />
   <glyph
   unicode="Z"
   horiz-adv-x="616"
   d="M589.508 722.997l0 -49.5011c0,-15.3377 -4.3426,-29.3357 -13.0047,-41.9939l-370.992 -523.492 374.988 0 0 -108.011 -549.501 0 0 52.989c0,6.6756 1.17805,13.1664 3.51104,19.3338 2.33299,6.16742 5.31276,11.8498 8.98549,17.1856l372.009 526.495 -361.014 0 0 106.994 535.018 0z"
   id="glyph103" />
   <glyph
   unicode="I"
   horiz-adv-x="314"
   d="M224.499 0l-134.99 0 0 722.997 134.99 0 0 -722.997z"
   id="glyph105" />
   <glyph
   unicode="F"
   horiz-adv-x="561"
   d="M528.989 723.991l0 -106.994 -320.498 0 0 -213.989 270.512 0 0 -108.011 -270.512 0 0 -294.489 -135.498 0 0 723.482 455.996 0z"
   id="glyph107" />
   <glyph
   unicode="2"
   horiz-adv-x="579"
   d="M301.001 731.003c33.3316,0 63.8336,-4.83343 91.5002,-14.6678 27.6666,-9.83432 51.3314,-23.8322 71,-41.8377 19.6629,-17.9998 35.0005,-39.6665 46.0013,-64.9943 10.995,-25.3336 16.4983,-53.5026 16.4983,-84.5013 0,-26.6676 -3.8344,-51.3371 -11.6649,-74.0029 -7.83628,-22.6657 -18.3347,-44.3324 -31.501,-65.0001 -13.1663,-20.6677 -28.6656,-40.6655 -46.3362,-59.9992 -17.6648,-19.3337 -36.167,-38.9966 -55.5007,-59.0002l-162.997 -166.502c16.0017,4.67174 31.6685,8.33867 47.0003,10.8333 15.3318,2.50045 29.9996,3.66694 43.9975,3.66694l185.501 0c13.3338,0 23.9997,-3.66694 31.836,-11.1625 7.8305,-7.50134 11.6649,-17.5031 11.6649,-29.8321l0 -74.0029 -496.001 0 0 41.0004c0,8.3329 1.83636,17.0007 5.33583,25.9977 3.49947,9.00277 8.99699,17.3357 16.6658,25.0045l219.497 219.999c18.3347,18.6638 34.833,36.4961 49.3333,53.4969 14.5003,17.0007 26.6676,33.834 36.5019,50.4998 9.83432,16.6658 17.3357,33.6665 22.4983,50.8347 5.16836,17.1682 7.66881,35.168 7.66881,54.1667 0,17.3357 -2.50045,32.6675 -7.50134,45.8338 -5.0009,13.1663 -12.1673,24.1671 -21.4992,33.1641 -9.33192,9.00277 -20.3327,15.8342 -33.1641,20.3385 -12.8372,4.4985 -27.3375,6.66401 -43.3334,6.66401 -29.6704,0 -53.9993,-7.50134 -73.1713,-22.4983 -19.1662,-15.0027 -32.6617,-35.168 -40.3305,-60.5016 -3.66694,-12.6697 -9.16446,-21.6667 -16.4983,-27.1642 -7.33388,-5.50329 -16.6658,-8.33867 -28.0015,-8.33867 -5.0009,0 -10.4984,0.502399 -16.4983,1.50142l-65.0001 11.5032c5.0009,34.6656 14.6678,65.1618 29.0006,91.3327 14.3328,26.1652 32.3326,47.9994 53.8318,65.4967 21.4992,17.5031 46.1688,30.6695 73.9971,39.499 27.8341,8.8353 57.6662,13.1721 89.6696,13.1721z"
   id="glyph109" />
   <glyph
   unicode="T"
   horiz-adv-x="595"
   d="M582.509 723.991l0 -110.99 -217.5 0 0 -612.492 -134.505 0 0 612.492 -218.493 0 0 110.99 570.498 0z"
   id="glyph111" />
   <glyph
   unicode="N"
   horiz-adv-x="756"
   d="M143.491 722.997c6.00573,0 11.0182,-0.161693 15.0143,-0.66987 3.99612,-0.485078 7.66885,-1.50143 10.8334,-3.00286 3.16456,-1.50143 6.16742,-3.64964 9.17029,-6.49081 2.97977,-2.84117 6.32911,-6.6756 10.0018,-11.3416l379.493 -483.484c-1.33974,11.665 -2.1713,23.1683 -2.67948,34.325 -0.485078,11.1568 -0.831562,21.5051 -0.831562,31.1605l0 439.504 118.498 0 0 -722.997 -69.4817 0c-10.6717,0 -19.5186,1.66312 -26.5176,4.98937 -6.99898,3.34935 -13.8132,9.35508 -20.4888,18.0172l-377.991 481.498c0.993255,-10.6717 1.82482,-21.1817 2.33299,-31.6687 0.485078,-10.51 0.646771,-20.1654 0.646771,-28.8275l0 -444.008 -118.498 0 0 722.997 70.498 0z"
   id="glyph113" />
   <glyph
   unicode="K"
   horiz-adv-x="698"
   d="M212.002 420.008l31.507 0c12.6582,0 23.1683,1.82482 31.4839,5.33586 8.33872,3.48794 15.4994,8.98549 21.5051,16.6543l199.506 252.495c8.33872,10.6717 17.1625,18.1789 26.3328,22.3367 9.17029,4.18091 20.6736,6.16742 34.6715,6.16742l116.003 0 -243.509 -300.494c-7.66885,-9.33198 -14.9912,-17.1625 -22.0133,-23.4916 -6.99898,-6.35221 -14.483,-11.5033 -22.4984,-15.5225 11.0182,-3.99612 21.02,-9.65536 29.8439,-16.9777 8.8238,-7.34547 17.3242,-16.6774 25.6629,-28.019l250.993 -338.492 -118.983 0c-16.0076,0 -27.8342,2.33299 -35.6648,6.83729 -7.85365,4.5043 -14.5061,10.9951 -19.842,19.6572l-204.495 267.001c-6.6756,8.66211 -14.1828,15.0143 -22.4984,18.8487 -8.33872,3.81133 -20.1654,5.65924 -35.5031,5.65924l-42.5021 0 0 -318.003 -134.505 0 0 723.991 134.505 0 0 -303.982z"
   id="glyph115" />
   <glyph
   unicode="Y"
   horiz-adv-x="654"
   d="M394.507 280.999l0 -280.999 -134.505 0 0 280.999 -263.513 441.999 118.521 0c11.665,0 20.997,-2.84117 27.8342,-8.50042 6.81419,-5.65924 12.4965,-12.8199 17.1625,-21.5051l132.496 -241.5c7.66885,-14.3214 14.3214,-27.8342 20.0037,-40.6542 5.65924,-12.843 10.8334,-25.5012 15.4994,-37.8361 4.3195,12.6582 9.33198,25.5012 14.8295,38.3212 5.49755,12.843 11.9884,26.1711 19.6572,40.1691l131.502 241.5c3.67273,7.34547 9.17029,14.1828 16.5158,20.5119 7.32237,6.32911 16.6543,9.49367 27.9959,9.49367l118.983 0 -262.982 -441.999z"
   id="glyph117" />
   <glyph
   unicode="4"
   horiz-adv-x="579"
   d="M471.002 272.999l90.9978 0 0 -71.4966c0,-6.66979 -2.16551,-12.3348 -6.50232,-17.1682 -4.33103,-4.83343 -10.6659,-7.33388 -18.9988,-7.33388l-65.4967 0 0 -176.498 -108.004 0 0 176.498 -304.997 0c-8.3329,0 -15.6668,2.66791 -22.0016,7.8305 -6.33485,5.16836 -10.3309,11.5032 -11.9998,19.1662l-12.5022 62.5054 342.504 457.495 117.001 0 0 -450.999zm-108.004 236.503c0,10.6659 0.334933,22.1633 1.0048,34.4981 0.664091,12.3348 1.83058,25.1662 3.49947,38.5l-224.503 -309.501 219.999 0 0 236.503z"
   id="glyph119" />
   <glyph
   unicode="E"
   horiz-adv-x="572"
   d="M528.989 722.997l0 -106.994 -320.498 0 0 -200.014 252.518 0 0 -103.991 -252.518 0 0 -203.987 320.498 0 0 -108.011 -455.996 0 0 722.997 455.996 0z"
   id="glyph121" />
   <glyph
   unicode="1"
   horiz-adv-x="579"
   d="M134.499 93.0016l146.499 0 0 420.999c0,16.3309 0.502399,33.4991 1.50142,51.4988l-103.997 -87.0017c-4.3368,-3.66694 -8.66783,-6.16739 -13.1663,-7.49557 -4.50427,-1.33396 -9.00277,-2.00382 -13.3338,-2.00382 -6.66979,0 -12.6697,1.50142 -18.1672,4.3368 -5.50329,2.82961 -9.66686,5.99992 -12.3348,9.66686l-39.0024 53.4969 220.501 187.499 101.502 0 0 -630.996 130 0 0 -93.0016 -400.002 0 0 93.0016z"
   id="glyph123" />
   <glyph
   unicode=" "
   horiz-adv-x="192"
   d=""
   id="glyph125" />
   <glyph
   unicode="B"
   horiz-adv-x="651"
   d="M72.9927 0l0 722.997 249.515 0c47.3298,0 87.8222,-4.5043 121.316,-13.4898 33.5166,-9.00859 61.0043,-21.8516 82.5095,-38.506 21.5051,-16.6774 37.1662,-36.8428 47.1681,-60.4962 10.0018,-23.6764 14.9912,-50.3326 14.9912,-80.0148 0,-17.0008 -2.49469,-33.147 -7.48406,-48.6464 -5.01247,-15.4994 -12.6813,-30.0055 -23.1683,-43.5184 -10.51,-13.4898 -23.8381,-25.8246 -40.0074,-36.8197 -16.1693,-10.9951 -35.5031,-20.3502 -57.8398,-27.9959 99.3486,-22.3367 149.011,-76.0187 149.011,-161 0,-30.6754 -5.84404,-59.0178 -17.509,-85.0042 -11.665,-26.0094 -28.6658,-48.3461 -51.0025,-67.1718 -22.3367,-18.8256 -49.8244,-33.6783 -82.4864,-44.3269 -32.6619,-10.6717 -70.0129,-16.0076 -112.007,-16.0076l-273.007 0zm134.505 317.01l0 -212.002 136.492 0c25.0162,0 46.0131,3.00286 62.8523,8.98549 16.816,6.00573 30.3289,13.998 40.4925,23.9998 10.1635,10.0018 17.509,21.6668 21.9902,35.018 4.5043,13.3281 6.6756,27.4878 6.6756,42.479 0,15.6842 -2.49469,29.8439 -7.50716,42.3404 -4.98937,12.4965 -12.8199,23.1683 -23.4916,31.9921 -10.6717,8.8469 -24.3232,15.4994 -41.0006,20.1885 -16.6774,4.66599 -36.8428,6.99898 -60.4962,6.99898l-136.007 0zm0 92.9964l107.503 0c45.6666,0 80.3382,8.31562 103.991,24.9931 23.6764,16.6774 35.5031,43.1719 35.5031,79.5066 0,37.6513 -10.6717,64.4923 -31.9921,80.4999 -21.3434,15.9845 -54.6752,23.9998 -99.9954,23.9998l-115.01 0 0 -208.999z"
   id="glyph127" />
   <glyph
   unicode="S"
   horiz-adv-x="536"
   d="M460.501 591.01c-3.67273,-7.34547 -7.83055,-12.5196 -12.6582,-15.4994 -4.85078,-3.00286 -10.6717,-4.5043 -17.3473,-4.5043 -6.6525,0 -14.1597,2.65638 -22.4984,7.83055 -8.33872,5.17417 -18.1558,10.8334 -29.4974,17.1625 -11.3416,6.32911 -24.508,12.1731 -39.6609,17.3242 -15.176,5.17417 -33.1701,7.66885 -53.8437,7.66885 -18.664,0 -34.8332,-2.1482 -48.6695,-6.6525 -13.8363,-4.5043 -25.5012,-10.8334 -34.9949,-18.8487 -9.49367,-7.99224 -16.6543,-17.4859 -21.3203,-28.6658 -4.66599,-11.1568 -6.99898,-23.4916 -6.99898,-36.8197 0,-16.8391 4.82768,-30.9988 14.3214,-42.3404 9.49367,-11.3416 21.9902,-20.997 37.6744,-28.9892 15.6611,-8.01534 33.4935,-15.176 53.4972,-21.5051 20.0037,-6.32911 40.4925,-13.1664 61.3277,-20.3271 20.8353,-6.99898 41.1623,-15.3377 61.166,-24.8545 20.0037,-9.49367 37.8361,-21.482 53.4972,-35.9882 15.6611,-14.5061 28.3424,-32.3385 37.8361,-53.1738 9.49367,-20.997 14.1597,-46.4982 14.1597,-76.5037 0,-32.6619 -5.49755,-63.1525 -16.6543,-91.6567 -11.1799,-28.5041 -27.5109,-53.3355 -48.9929,-74.4941 -21.5051,-21.1817 -47.8379,-37.8361 -78.8367,-50.0092 -30.9988,-12.1731 -66.5019,-18.1558 -106.509,-18.1558 -23.0066,0 -45.6666,2.33299 -68.0033,6.81419 -22.3367,4.5043 -43.657,10.8334 -64.1689,19.1721 -20.4888,8.33872 -39.6609,18.3406 -57.4933,30.0055 -17.8324,11.665 -33.84,24.6697 -47.8379,38.991l39.0141 64.5154c3.64964,4.66599 8.15393,8.50042 13.3281,11.665 5.17417,3.16456 10.8334,4.82768 17.1625,4.82768 8.33872,0 17.3242,-3.48794 27.0027,-10.3252 9.65536,-6.83729 21.1586,-14.3445 34.325,-22.6832 13.1664,-8.31562 28.6658,-15.9845 46.4982,-22.8218 17.8324,-6.83729 39.1758,-10.1635 64.1689,-10.1635 38.3443,0 68.0033,9.17029 89.0003,27.3261 20.997,18.1789 31.507,44.1652 31.507,78.1669 0,19.0104 -4.66599,34.5098 -14.1597,46.4982 -9.51677,12.0115 -22.175,22.175 -37.8361,30.3289 -15.6611,8.17703 -33.5166,15.0143 -53.4972,20.6736 -20.0037,5.65924 -40.3308,11.8267 -61.0043,18.5023 -20.6736,6.6756 -41.0006,14.6678 -61.0043,23.9998 -20.0037,9.33198 -37.8361,21.5051 -53.4972,36.4964 -15.6611,15.0143 -28.1576,33.84 -37.6744,56.3384 -9.49367,22.4984 -14.3214,50.1709 -14.3214,83.1562 0,26.3328 5.33586,52.0188 15.8228,77.0119 10.51,24.9931 25.8477,47.1681 46.0131,66.5019 20.1654,19.3338 44.8351,34.8332 74.1476,46.4982 29.3357,11.665 62.8523,17.4859 100.504,17.4859 42.6638,0 82.0013,-6.6525 118.013,-20.1654 35.9882,-13.3281 66.6636,-32.1537 92.0031,-56.3153l-33.0084 -63.499z"
   id="glyph129" />
   <glyph
   unicode="P"
   horiz-adv-x="625"
   d="M212.002 254.989l0 -254.481 -134.505 0 0 723.482 235.494 0c48.3461,0 90.1783,-5.65924 125.52,-17.0008 35.3183,-11.3185 64.4923,-27.1644 87.4988,-47.4915 22.9835,-20.3271 39.9843,-44.8351 50.9794,-73.1544 11.0182,-28.3424 16.5158,-59.3412 16.5158,-93.0195 0,-35.1566 -5.84404,-67.1487 -17.509,-96.4843 -11.665,-29.174 -29.1509,-54.1671 -52.5039,-75.3488 -23.3299,-20.997 -52.4808,-37.3279 -87.4988,-48.9929 -34.9949,-11.665 -75.9956,-17.509 -123.002,-17.509l-100.989 0zm0 105.008l100.989 0c24.6697,0 46.1748,3.16456 64.5154,9.33198 18.3175,6.16742 33.4935,15.0143 45.5049,26.4945 11.9884,11.5033 20.997,25.5012 26.9796,42.017 6.00573,16.6543 9.00859,34.9949 9.00859,55.4837 0,19.3338 -3.00286,36.8428 -9.00859,52.5039 -5.98263,15.6611 -14.9912,29.174 -26.9796,40.1691 -12.0115,10.9951 -27.1875,19.3338 -45.5049,25.1779 -18.3406,5.82094 -39.8457,8.8238 -64.5154,8.8238l-100.989 0 0 -260.002z"
   id="glyph131" />
   <glyph
   unicode="M"
   horiz-adv-x="930"
   d="M435.993 300.009c5.68234,-10.6717 11.0182,-21.6668 15.8459,-33.1701 4.82768,-11.5033 9.49367,-23.1683 14.1597,-34.8332 4.66599,11.9884 9.49367,23.8381 14.5061,35.5031 4.98937,11.665 10.3252,22.8218 15.9845,33.4935l214.012 400.49c2.65638,5.01247 5.49755,9.00859 8.33872,12.0115 2.81807,3.00286 5.98263,5.17417 9.49367,6.49081 3.51104,1.33974 7.32237,2.1713 11.665,2.49469 4.3426,0.346484 9.49367,0.508177 15.4994,0.508177l101.497 0 0 -722.997 -118.498 0 0 466.992c0,8.68521 0.346484,18.1789 0.831562,28.5041 0.508177,10.3483 1.17805,20.8353 2.1713,31.507l-218.493 -410.006c-5.01247,-9.33198 -11.5033,-16.4927 -19.4955,-21.6668 -8.01534,-5.17417 -17.3473,-7.83055 -28.019,-7.83055l-18.5023 0c-10.6486,0 -19.9806,2.65638 -27.9959,7.83055 -7.99224,5.17417 -14.483,12.3348 -19.4955,21.6668l-221.496 411.508c1.33974,-10.9951 2.33299,-21.6668 2.84117,-32.1768 0.485078,-10.4869 0.646771,-20.3271 0.646771,-29.3357l0 -466.992 -118.498 0 0 722.997 101.497 0c6.00573,0 11.1799,-0.161693 15.4994,-0.508177 4.3426,-0.323385 8.33872,-1.15495 11.8498,-2.49469 3.48794,-1.31664 6.6525,-3.48794 9.65536,-6.49081 3.00286,-3.00286 5.84404,-6.99898 8.50042,-12.0115l215.998 -401.483z"
   id="glyph133" />
   <glyph
   unicode="G"
   horiz-adv-x="722"
   d="M404.994 99.0021c30.3289,0 56.8465,2.84117 79.3449,8.33872 22.4984,5.49755 43.8187,12.9816 64.1689,22.6601l0 132.011 -90.5017 0c-8.66211,0 -15.4994,2.49469 -20.5119,7.32237 -4.98937,4.82768 -7.48406,10.6717 -7.48406,17.6707l0 75.9956 240.483 0 0 -293.01c-18.3175,-13.3281 -37.3279,-24.8314 -57.1699,-34.6484 -19.8189,-9.84016 -41.0006,-18.0172 -63.499,-24.3463 -22.4984,-6.32911 -46.6599,-10.9951 -72.3228,-14.1597 -25.6629,-3.16456 -53.3355,-4.82768 -82.9945,-4.82768 -52.6656,0 -101.173,9.17029 -145.5,27.4878 -44.35,18.3406 -82.6712,43.8418 -115.01,76.5037 -32.3385,32.6619 -57.4933,71.6761 -75.6722,116.996 -18.1558,45.3433 -27.3261,94.8443 -27.3261,148.503 0,54.3287 8.8238,104.176 26.4945,149.496 17.6707,45.3433 42.8486,84.3343 75.3488,116.996 32.5002,32.685 71.8147,58.0015 118.151,76.0187 46.3365,17.9941 98.3323,26.9796 156.01,26.9796 58.9947,0 110.159,-8.8238 153.331,-26.3328 43.1719,-17.6476 79.6683,-40.4925 109.674,-68.6501l-39.0141 -60.8426c-7.66885,-12.3348 -17.8324,-18.5023 -30.4906,-18.5023 -7.99224,0 -16.1693,2.67948 -24.508,8.01534 -10.6717,6.32911 -21.5051,12.6582 -32.6619,18.9873 -11.1568,6.32911 -23.4916,11.8267 -37.0045,16.331 -13.4898,4.66599 -28.6658,8.50042 -45.5049,11.5033 -16.816,3.00286 -36.3347,4.5043 -58.3249,4.5043 -35.6648,0 -67.8416,-6.00573 -96.6691,-17.9941 -28.8275,-12.0115 -53.4972,-29.174 -73.8243,-51.5107 -20.3502,-22.175 -36.0113,-48.9929 -47.0064,-80.3382 -10.9951,-31.3222 -16.4927,-66.3171 -16.4927,-104.823 0,-41.6705 5.82094,-78.8367 17.4859,-111.175 11.665,-32.5002 27.9959,-59.8263 49.016,-82.163 20.997,-22.3367 45.99,-39.4992 75.0023,-51.3259 28.9892,-11.8498 60.6579,-17.6707 94.9829,-17.6707z"
   id="glyph135" />
  </font>
</defs>
</svg>
